#TITLE:Monokuro No Kiss;
#SUBTITLE:Expi3nze & sdo;
#ARTIST:SID;
#TITLETRANSLIT:;
#SUBTITLETRANSLIT:;
#ARTISTTRANSLIT:;
#CREDIT:;
#BANNER:bn.png;
#BACKGROUND:bg.png;
#LYRICSPATH:;
#CDTITLE:cdtitle.png;
#MUSIC:monokuro-no kiss.mp3;
#OFFSET:-0.360;
#SAMPLESTART:53.360;
#SAMPLELENGTH:28.800;
#SELECTABLE:YES;
#BPMS:0.000=150.000,96.000=300.000,96.667=75.000,97.000=300.000,97.667=75.000,98.000=150.000,256.000=300.000,256.667=75.000,257.000=300.000,257.667=75.000,258.000=150.000;
#STOPS:;
#BGCHANGES:;
// cache tags:
#FIRSTBEAT:1.250;
#LASTBEAT:420.000;
#SONGFILENAME:Songs/Super Dancer Online/Monokuro no kiss (SID)/monokuro-no kiss.sm;
#HASMUSIC:1;
#HASBANNER:1;
#MUSICLENGTH:170.169;
// end cache tags

//---------------dance-single - ----------------
#NOTES:
     dance-single:
     :
     Hard:
     26:
     1.000,1.000,1.000,0.887,0.776,1037.000,271.000,151.000,0.000,197.000:
0000
0000
0000
0000
0000
1000
0100
0010
1002
0000
0010
0010
0100
0000
0010
0000
,
0000
0100
0100
0000
1000
0000
0100
0010
0100
0000
0010
0010
1000
0000
0100
0000
,
0000
1000
1000
0000
0010
1003
0100
0010
0002
0000
0010
0010
1000
0000
0010
0100
,
2003
0001
0001
0000
0001
0000
3100
0010
1002
0000
0010
0010
1000
0000
0013
0100
,
2000
0001
0001
0000
0010
0000
3100
0010
1002
0000
0010
0010
1000
0000
0010
0000
,
0000
0100
0100
0000
0010
0000
0010
1000
0010
0000
1000
1000
0010
0000
1000
0000
,
0000
0100
0100
0000
0123
0000
1000
1000
0231
0000
1000
1000
0001
0000
1000
0000
,
0000
0010
0010
0000
0001
0000
1000
1000
0010
0000
0001
0001
1000
0000
0001
0000
,
0000
1000
1000
0000
1000
0000
0301
0001
0100
0000
0011
0100
0011
0000
1100
0000
,
0021
0100
0100
0000
0001
0000
1130
0001
0110
0000
2100
0001
0001
0000
3110
0000
,
0011
1000
0012
0000
0100
0000
1000
1000
0013
0000
1100
0010
1100
0000
0011
0000
,
0110
1000
1000
0000
0001
0000
0011
1000
0011
0100
0010
1102
0010
0000
1200
0000
,
0000
0010
2310
0000
0100
0013
0001
0010
3100
0000
1100
0010
1100
0000
0011
0000
,
1001
0100
0100
0000
0010
0000
0110
1000
0011
0000
2010
0001
0001
0000
3100
0000
,
0001
0001
1010
0000
0101
0000
1100
0010
1102
0000
0010
1100
0010
0000
0013
0100
,
2001
0010
0010
0000
0001
0000
3100
0010
1102
0000
0010
1100
0010
0000
1103
0010
,
2100
0011
0000
0011
0100
0000
3100
0010
1002
0000
0010
1000
0010
0000
2100
0000
,
0010
0100
0100
0000
0100
0000
0010
0010
0100
0000
0010
0010
0100
0000
0010
0000
,
0100
0010
0010
0000
0113
0000
3001
0001
0010
0000
1000
0001
1000
0000
0102
0000
,
1000
0100
0100
0000
1000
0003
0001
0001
0102
0000
0010
1000
0010
0000
0100
0000
,
1000
0100
0010
0000
1100
0000
0013
0010
1000
0000
0001
1000
0001
0000
2010
0000
,
0001
0100
0100
0000
0001
3000
1000
1000
2010
0000
0100
0001
0100
0000
3012
0000
,
1000
0100
0103
0000
0011
0000
1000
1000
0001
0000
1000
0001
1000
0000
0102
0000
,
1000
0010
0010
0000
1100
0000
0010
0010
1103
0010
0001
0001
1100
0000
0010
0000
,
2002
0000
0000
0000
3223
0000
0000
0000
1331
1000
0001
0001
0100
0000
0001
0001
,
0010
0000
1001
0000
0010
0000
1001
0000
0001
0001
1000
1000
0011
0000
1000
1000
,
0001
0000
0100
0100
0011
0000
0100
0100
1001
0001
0100
0100
0011
0000
1000
1000
,
0010
0000
1001
0000
0100
0000
0011
0000
1100
0010
0001
0010
2100
0000
0010
0000
,
3102
0000
0010
0010
1203
0000
0010
0000
0311
1000
0001
0001
1000
0000
0001
0001
,
0100
0100
0011
0000
0100
0000
1100
0000
0001
1000
0001
0001
1100
0001
0100
0100
,
0001
1000
0001
0001
1100
0001
0100
0000
0011
1000
0010
0010
1000
1000
0001
0001
,
0010
0010
1100
0000
0010
0000
2101
0000
0010
0000
0100
0100
0011
0000
0100
0010
,
0002
0000
0100
0000
0110
0000
0013
0010
3001
0000
0100
0000
0010
0000
2000
0000
,
0000
3010
1000
0100
0012
1000
0110
1000
,
0100
0010
0010
0000
1100
0000
0010
0000
2013
0000
0100
0000
0011
0000
0100
0100
,
0010
0010
0001
0000
0110
0000
0001
0000
3012
0000
1000
0000
0110
0000
1000
0000
,
0100
0010
0010
0000
1100
0000
0010
0010
2103
0000
0100
0000
0011
0000
0100
0100
,
0001
0001
0100
0000
0011
0000
0100
0000
3121
0000
1000
0000
0001
0000
1132
0000
,
1000
0000
0010
0003
0100
0000
1210
0000
0001
0000
1000
0000
0010
0000
1312
1000
,
0010
0010
1000
0000
0100
0000
0010
0000
2113
0000
0100
0000
0001
0000
0100
0100
,
0010
0100
0100
0000
0001
0000
3112
0000
1000
0000
0010
0000
1000
0000
0213
0010
,
1000
0001
1000
1000
0001
1000
0001
0001
2301
0000
0010
0000
3001
0000
0011
0000
,
1200
0010
0010
0000
0311
0000
1200
0001
0001
0000
0310
0000
1000
0000
0011
0000
,
1100
0010
1100
0000
1010
0000
1100
0000
0021
0000
0100
0000
0031
0000
1200
0001
,
0001
0000
0311
0000
1100
0000
0021
1000
1000
0000
0130
0000
0001
0000
1000
0000
,
0021
1000
0100
0000
1230
0000
0010
0000
1311
0000
0001
0000
1000
0000
0121
0000
,
1000
2131
0001
3211
0001
1300
0010
1102
,
0010
0000
1003
0000
0010
0000
0100
0000
1011
0000
0100
0000
0010
0000
1201
0001
,
1000
0001
1300
1000
0001
1000
0100
0010
1002
0000
0010
0010
1000
0000
0013
0100
,
1000
0000
0100
0000
0021
0000
0000
0000
1000
0000
0000
0000
0001
0000
0000
0000
0130
0000
1000
0000
0100
0010
0001
0000
0010
0000
0100
0000
2001
0000
0000
0000
,
0001
0000
3100
0100
0011
0100
1000
0100
0021
0000
0000
1000
0100
0000
0001
0000
,
0000
0000
0231
0000
1000
0000
1320
0000
2031
0000
0000
0001
3201
0010
0000
1320
,
0000
0000
0000
0000
0132
0000
1100
0000
0123
0000
2031
0000
0100
0100
0001
0000
,
0010
0000
0000
0000
3201
0000
1320
0000
1032
0000
0010
0000
1000
1000
0010
0000
,
0100
0000
0000
0000
0123
0000
1001
0230
0010
0000
2301
0000
0010
3210
1000
0000
,
0321
0000
0032
0000
1000
0023
1100
0000
0231
0000
1000
0000
2301
0001
0110
0000
,
0001
0000
0100
0100
0001
0000
3011
1000
0100
0010
0201
0000
1000
1000
0001
0000
,
0001
0000
1000
0000
1000
0000
0011
0000
1000
0000
0001
0000
1000
1000
0001
0000
,
1000
0000
0001
0000
2311
0000
3020
0000
0230
0000
1320
0000
0001
0231
1000
0000
,
0321
0000
1000
0000
0001
0000
1100
0000
0001
0000
1000
0000
0001
1000
0001
0000
,
1000
0000
0001
0000
1100
0001
1230
0000
0001
0000
1000
0000
0001
0001
1000
0000
,
0001
0000
1000
0000
0001
0000
1001
0000
0001
0000
1000
0000
0001
0001
1000
0000
,
1000
0000
0001
0000
1001
0000
0010
0000
1000
0000
0301
0000
0010
0010
0100
0000
,
1100
0010
0100
0100
0011
0000
0010
0000
0211
0000
1000
1000
0010
0010
1000
0000
,
2302
0000
3223
0000
1331
0100
0010
0200
,
0000
0000
1311
0000
0000
0000
1110
0000
0001
0000
0100
0100
0010
0000
2001
0001
,
0100
0100
3001
0000
0100
0000
0010
0000
1101
0000
0010
0000
0100
0000
1002
0000
,
0000
0000
1113
0000
0000
0000
0111
0000
1000
0000
0001
0001
1000
1000
0010
0010
,
1000
1000
0221
0000
1000
1000
0001
0000
1331
0000
0001
0001
0100
0000
0001
0001
,
0010
0000
1100
0000
0001
0000
1100
0000
0001
0000
1000
1000
0011
0000
1000
1000
,
0001
0000
0100
0000
0011
0000
0100
0000
1001
0000
0100
0100
0011
0000
1000
1000
,
0010
0000
1001
0000
0100
0000
1221
0000
0001
0000
1000
1000
0001
1000
0001
0001
,
1000
0001
1000
1000
0001
0001
1000
1000
0331
0000
1000
1000
0001
0000
1000
0000
,
0001
0001
0110
0000
1001
0000
0110
0000
0012
0000
1000
0000
0110
0000
1000
0000
,
0100
0010
0010
0000
1100
0000
0010
0010
2103
0000
0010
0000
0011
0000
0100
0100
,
0010
0010
0001
0000
0110
0000
0001
0000
3012
0000
1000
0000
0110
0000
1000
0010
,
0100
1000
0010
0000
1100
0000
0010
0000
2013
0000
0100
0000
0011
0000
0100
0100
,
0001
0001
0100
0000
0011
0000
0100
0000
3121
0000
0001
0000
1000
0000
1132
0000
,
1000
0000
0010
0000
0100
0000
1123
0000
0001
0000
1000
0000
0001
0000
1132
0010
,
0100
0100
1000
1000
0110
0000
0010
0000
2103
0000
0100
0000
0011
0000
0100
0100
,
0001
0001
0100
0000
3001
0000
0112
0000
1000
0000
0010
0000
0100
0000
1213
0010
,
1000
0001
1000
1000
0001
1000
0001
0001
2310
0000
0001
0000
0100
0000
3011
0000
,
1200
0010
0010
0000
0311
0000
1200
0001
0001
0000
0310
0000
1000
0000
0011
0000
,
1100
0010
1100
0000
0101
0000
1010
0000
0021
0000
0100
0000
0031
0000
1200
0001
,
1000
1000
0311
0000
1100
0000
0021
1000
1000
0000
0130
0000
0001
0000
1100
0000
,
0011
1000
0011
0000
1100
0000
1010
0000
0112
0000
0000
1000
0013
0000
1201
0000
,
0010
0301
0100
1011
0010
0001
1000
1121
,
0100
1000
1030
0001
0001
0000
0010
0000
2110
0000
0001
0000
3110
0000
1002
1000
,
0010
0100
0123
0000
1000
0000
1231
0000
1000
0000
0311
0000
1200
0001
1000
1000
,
0301
1000
0001
0001
1000
0001
1000
1000
0012
0000
0100
0000
1100
0000
0010
0010
,
1000
0010
0010
0000
1100
0000
0010
0000
2013
0000
0100
0000
0011
0000
3021
0100
,
0001
0100
0001
0000
1132
0000
0010
0000
2013
0000
0100
0000
0011
0000
0100
0100
,
0010
0001
0001
0000
0011
0000
0100
0000
3120
0000
0001
0000
1100
0000
0001
0100
,
0001
0100
0001
0000
1100
0000
0001
0000
1131
0000
0010
0000
1000
0000
0112
0000
,
1000
1203
0001
1321
0100
1030
0010
0112
,
1000
1000
0213
0000
1000
1000
0301
0001
1110
0000
0001
0000
1000
0000
1011
1000
,
0001
1000
0001
0001
1000
0001
0010
0100
2001
0000
0001
0001
3100
0100
0012
0000
,
1000
1000
0013
0010
2100
0000
0010
0010
0100
0100
0010
0000
0001
3001
0100
0100
,
1002
0000
0010
0010
0100
0000
1023
0000
0100
0000
1031
0000
0210
0000
0001
0000
,
1000
0001
1000
1000
0001
1000
0001
0001
0010
0000
0001
0000
1310
0000
0202
0000
,
0000
0000
0000
0000
,
0000
0000
2000
0020
,
0000
0000
0000
0000
,
0000
0000
0000
0000
,
0000
0000
0000
0000
,
3333
0000
0000
0000
;
